//honeypot demagogic

 Forum DhammaCitta. Forum Diskusi Buddhis Indonesia

Author Topic: VCD kesaksian Se Mu seorang Buddhis yang membaca Nien Fo terus (ada reliknya)  (Read 33498 times)

0 Members and 1 Guest are viewing this topic.

Offline naviscope

  • KalyanaMitta
  • *****
  • Posts: 2.084
  • Reputasi: 48
kalau vcd kesaksian, saya kurang yakin dan percaya...karena biasanya ada unsur editan dan bukan fakta....

kalau di lihat langsung dan di pegang baru gw yakin.....



se7 bro, ;D

 [at] ryuana, izin sedot bro, yang part nomor 3
Tinggalkan masa lalu, lepaskan beban akan masa depan, tidak terikat dengan yang sekarang maka kamu akan merasakan kedamain batin.

Leave the past alone, do not worry about the future, do not cling to the present and you will achieve calm.

Offline ryu

  • Global Moderator
  • KalyanaMitta
  • *****
  • Posts: 13.403
  • Reputasi: 429
  • Gender: Male
  • hampir mencapai penggelapan sempurna ;D
kalau vcd kesaksian, saya kurang yakin dan percaya...karena biasanya ada unsur editan dan bukan fakta....

kalau di lihat langsung dan di pegang baru gw yakin.....



se7 bro, ;D

 [at] ryuana, izin sedot bro, yang part nomor 3
monngo mas
Janganlah memperhatikan kesalahan dan hal-hal yang telah atau belum dikerjakan oleh diri sendiri. Tetapi, perhatikanlah apa yang telah dikerjakan dan apa yang belum dikerjakan oleh orang lain =))

Offline Sukma Kemenyan

  • Global Moderator
  • KalyanaMitta
  • *****
  • Posts: 1.840
  • Reputasi: 109
http://rapidshare.com/files/333478910/Se_Mu.mp4 100MB
"MediaInfo": ShowHide
Video
Format                           : AVC
Format/Info                      : Advanced Video Codec
Format profile                   : High [at] L1.3
Format settings, CABAC           : Yes
Format settings, ReFrames        : 2 frames
Codec ID                         : avc1
Duration                         : 39mn 14s
Bit rate mode                    : Variable
Bit rate                         : 324 Kbps
Maximum bit rate                 : 1074 Kbps
Width                            : 344 pixels
Height                           : 236 pixels
Display aspect ratio             : 1.466
Frame rate mode                  : Constant
Frame rate                       : 23.000 fps
Colorimetry                      : 4:2:0
Scan type                        : Progressive
Bits/(Pixel*Frame)               : 0.174
Stream size                      : 90.9 MiB
Encoded date                     : UTC 2010-01-10 03:13:44
Tagged date                      : UTC 2010-01-10 03:14:37

Audio
Format                           : AAC
Format/Info                      : Advanced Audio Codec
Format version                   : Version 4
Format profile                   : LC
Format settings, SBR             : Yes
Format settings, PS              : No
Codec ID                         : 40
Duration                         : 39mn 14s
Bit rate mode                    : Variable
Bit rate                         : 29.5 Kbps
Maximum bit rate                 : 36.9 Kbps
Channel(s)                       : 2 channels
Channel positions                : L R
Sampling rate                    : 44.1 KHz
Resolution                       : 16 bits
Stream size                      : 8.28 MiB

« Last Edit: 11 January 2010, 11:11:42 AM by Kemenyan »

Offline ryu

  • Global Moderator
  • KalyanaMitta
  • *****
  • Posts: 13.403
  • Reputasi: 429
  • Gender: Male
  • hampir mencapai penggelapan sempurna ;D
Mantap mbah :jempol:
Janganlah memperhatikan kesalahan dan hal-hal yang telah atau belum dikerjakan oleh diri sendiri. Tetapi, perhatikanlah apa yang telah dikerjakan dan apa yang belum dikerjakan oleh orang lain =))

Offline naviscope

  • KalyanaMitta
  • *****
  • Posts: 2.084
  • Reputasi: 48
iya mantaff om kemenyan

izin sedot ya bro  :D

ga usa pake burnt2 lg

meluncur ke tekape....
« Last Edit: 11 January 2010, 11:51:06 AM by naviscope »
Tinggalkan masa lalu, lepaskan beban akan masa depan, tidak terikat dengan yang sekarang maka kamu akan merasakan kedamain batin.

Leave the past alone, do not worry about the future, do not cling to the present and you will achieve calm.

Offline hengki

  • Sahabat Baik
  • ****
  • Posts: 741
  • Reputasi: 49
Terserah mw percaya apa gak. Yg gw tau Agama Buddha gak seperti K yg suka buat Kesaksian atau Kisah yg Aneh2. Di Agama Buddha bebas org mw Percaya atau gak, mw Berbuat Baik apa gak, gak ada Misi agar org masuk Agama Buddha. Jd saya rasa tdk pada tempatnya kalau dibilang bohong atau rekayasa. Memang dpt Untung berapa M? :)
Berbuat Baik dan Melatih Diri sebaiknya dilakukan sedari muda. Jangan menunggu sudah bungkuk, pikun, mata rabun, jalan pakai tongkat baru mau Berbuat Baik dan Melatih Diri

Offline JH sugathadasa

  • Sahabat
  • ***
  • Posts: 293
  • Reputasi: 9
  • Gender: Male
Saya pernah ntn vcd ini, kalo tdk salah ada 2. Yg satu nenek2 dan yg satu lg kakek2.
ini 2 kasus yg berbeda.
Malah kalo ga salah, (entah si nenek/ si kakek) dia sudah tahu kapan akan meninggal.
Jadi dia minta sanak keluarga bersiap2 dan ikut nien fo bersama.

menurut saya, nien fo itu secara tdk langsung akan menjaga pikiran tetap baik & fokus.
 

Offline JH sugathadasa

  • Sahabat
  • ***
  • Posts: 293
  • Reputasi: 9
  • Gender: Male
ohya judulnya itu ada kata2 "Se MU" itu artinya apa sih ?  ???

Offline Sunce™

  • Sebelumnya: Nanda
  • KalyanaMitta
  • *****
  • Posts: 1.350
  • Reputasi: 66
  • Gender: Male
  • Nibbana adalah yang Tertinggi
ohhh, mengenai itu toh...

Offline ryu

  • Global Moderator
  • KalyanaMitta
  • *****
  • Posts: 13.403
  • Reputasi: 429
  • Gender: Male
  • hampir mencapai penggelapan sempurna ;D
ohya judulnya itu ada kata2 "Se MU" itu artinya apa sih ?  ???
nama nenek itu.
Janganlah memperhatikan kesalahan dan hal-hal yang telah atau belum dikerjakan oleh diri sendiri. Tetapi, perhatikanlah apa yang telah dikerjakan dan apa yang belum dikerjakan oleh orang lain =))

Offline Juice_alpukat

  • Sahabat Baik
  • ****
  • Posts: 734
  • Reputasi: 11
  • Gender: Male
mesti tanya roy suryo tuh biar tau vcd itu direka apa asli,ckacka.

Offline Sukma Kemenyan

  • Global Moderator
  • KalyanaMitta
  • *****
  • Posts: 1.840
  • Reputasi: 109
Nyesel gw...
Isinya dogmatis

Offline ryu

  • Global Moderator
  • KalyanaMitta
  • *****
  • Posts: 13.403
  • Reputasi: 429
  • Gender: Male
  • hampir mencapai penggelapan sempurna ;D
Nyesel gw...
Isinya dogmatis
namanya juga aliran sukhavati mbah.... :D
Janganlah memperhatikan kesalahan dan hal-hal yang telah atau belum dikerjakan oleh diri sendiri. Tetapi, perhatikanlah apa yang telah dikerjakan dan apa yang belum dikerjakan oleh orang lain =))

Offline naviscope

  • KalyanaMitta
  • *****
  • Posts: 2.084
  • Reputasi: 48
Tinggalkan masa lalu, lepaskan beban akan masa depan, tidak terikat dengan yang sekarang maka kamu akan merasakan kedamain batin.

Leave the past alone, do not worry about the future, do not cling to the present and you will achieve calm.

Offline ryu

  • Global Moderator
  • KalyanaMitta
  • *****
  • Posts: 13.403
  • Reputasi: 429
  • Gender: Male
  • hampir mencapai penggelapan sempurna ;D
Janganlah memperhatikan kesalahan dan hal-hal yang telah atau belum dikerjakan oleh diri sendiri. Tetapi, perhatikanlah apa yang telah dikerjakan dan apa yang belum dikerjakan oleh orang lain =))

 

anything